#TITLE:A Public Affair;
#SUBTITLE:;
#ARTIST:Jessica Simpson;
#TITLETRANSLIT:A Public Affair;
#SUBTITLETRANSLIT:;
#ARTISTTRANSLIT:Jessica Simpson;
#CREDIT:;
#BANNER:A Public Affair-bn.png;
#BACKGROUND:A Public Affair-bg.png;
#LYRICSPATH:;
#CDTITLE:pm4cd.png;
#MUSIC:A Public Affair.mp3;
#OFFSET:0.020;
#SAMPLESTART:46.550;
#SAMPLELENGTH:20.000;
#SELECTABLE:YES;
#BPMS:0.000=124.000;
#STOPS:;
#BGCHANGES:;
// cache tags:
#FIRSTBEAT:1.250;
#LASTBEAT:411.250;
#SONGFILENAME:Songs/Music V.I.P ^_^/A Public Affair/A Public Affair.sm;
#HASMUSIC:1;
#HASBANNER:1;
#MUSICLENGTH:201.542;
// end cache tags

//---------------dance-single - ----------------
#NOTES:
     dance-single:
     :
     Hard:
     12:
     1.000,1.000,1.000,0.099,1.000,1147.000,434.000,20.000,0.000,90.000:
0000
0000
0000
0000
0000
0010
0000
0000
0000
0100
0000
0000
0000
0001
0000
0000
,
0000
1000
0000
0000
0000
0100
0000
1000
0000
0100
0000
0001
0000
0001
0010
0100
,
1000
0100
0010
0100
0010
0101
0000
0000
0000
1000
0000
0000
0000
0010
0000
0000
,
0000
0001
0000
0000
0000
1100
0000
0110
0000
0011
0000
0110
0000
0000
0000
0100
,
0010
0100
0010
0100
0010
1101
0000
0001
0010
1100
0000
0001
0010
1100
0000
0001
,
0010
1100
0000
1000
0100
0011
0000
1000
0100
0011
0000
1000
0100
0011
0000
0001
,
0010
0100
1000
0100
0010
1100
0000
0001
0100
1010
0000
0001
0100
1010
0000
0001
,
0100
1010
0000
1000
0010
0101
0000
1000
0010
0101
0000
1000
0010
0101
0000
1000
,
0100
0010
0100
1000
0100
0011
0000
0010
0001
1100
0000
0010
0001
1100
0000
0010
,
0001
1100
0000
0100
1000
0011
0000
0100
1000
0011
0000
0100
1000
0011
0100
1000
,
0100
0010
0100
1000
0100
1010
0000
0100
0001
1100
0000
0100
0001
1100
0000
0100
,
0001
1100
0000
0010
1000
0011
0000
0010
1000
0011
0000
0010
1000
0011
0100
0010
,
0001
0010
0100
0010
0001
1010
0000
0100
0000
0101
0000
1000
0100
0011
0000
0110
,
0000
1100
0000
0001
0000
1010
0000
0001
0000
0011
0000
0010
0100
1010
0000
1100
,
0000
1001
0000
0100
0000
0011
0000
0100
0000
0101
0000
0010
0100
1001
0000
0011
,
0000
0110
0000
1000
0000
0101
0000
0010
0000
1100
0000
0100
0010
1001
0000
1010
,
0000
0101
0000
1001
0000
0121
0000
1000
0000
1100
0000
0001
1000
1001
0000
1100
,
0000
0131
0000
0010
0000
1201
0000
0001
0000
0011
0000
1000
0001
1001
0000
0011
,
0000
1310
0000
0100
0000
0011
0000
0100
0000
0101
0000
0001
0010
1100
0000
0101
,
0000
1001
0000
0100
0000
0101
0000
0010
0000
1001
0000
0100
0010
1100
0000
1001
,
0000
1100
0110
0011
0000
1111
0000
0000
0000
0101
0000
0010
0001
1100
0000
1001
,
0000
0110
0000
0001
0000
1010
0000
0100
0000
0011
0000
0100
1000
0101
0000
1010
,
0000
0101
0000
0001
0000
1001
0000
0010
0000
1100
0000
1000
0010
0101
0000
0110
,
0000
1010
0000
0000
0000
0000
1111
0000
0000
0000
1111
0000
0000
0000
1111
0000
,
0100
1010
0100
1010
0100
1011
0100
1000
0010
0100
1000
0100
0010
0001
0100
0001
,
0010
0001
0100
0010
0100
1000
0100
0010
0001
0100
1000
0002
1000
0010
0100
1000
,
0010
0100
0010
1000
0100
1013
0001
0010
0100
1000
0100
0010
0001
1000
0100
0010
,
0100
0010
0001
0100
0001
1100
0010
1100
0010
1100
0001
0110
0001
1000
0010
0100
,
0001
0100
0010
1000
0010
1000
0010
0100
0010
0001
1000
0100
0010
0001
0010
0100
,
1000
0010
0100
0001
0010
1000
0100
0001
0100
1000
0010
0100
0010
2000
0001
0010
,
0001
0100
0010
0001
0010
3101
0010
0001
1000
0100
0010
0001
1000
0010
0100
0001
,
0010
0001
0100
0001
0010
0101
0010
0101
0010
0101
0010
0101
0010
1100
0010
1001
,
0010
1001
0010
1001
0010
1101
0000
0010
0000
1100
0000
1000
0010
0101
0000
0011
,
0000
1001
0000
0100
0000
0101
0000
0010
0000
1001
0000
0100
0010
0101
0000
0011
,
0000
1100
0110
0000
0000
0110
0000
0010
0000
0011
0000
1000
0100
1010
0000
1100
,
0000
0101
0000
0010
0000
1001
0000
0100
0000
0011
0000
0010
0001
1010
0000
0101
,
0000
1100
0000
1000
0000
0110
0000
0000
0000
0101
0000
0010
0010
1100
0000
1010
,
0000
1001
0000
0100
0000
0110
0000
1000
0000
0101
0000
1000
1000
0101
0000
0010
,
0000
1001
0101
0000
0000
0011
0000
1000
0000
0110
0000
0001
0100
1010
0000
0110
,
0000
1100
0000
0001
0000
0101
0000
0010
0000
1001
0000
0100
0100
0011
0000
0110
,
0001
1100
0010
0101
0010
2101
0000
0100
0000
0011
0000
0100
0001
0110
0000
0101
,
0000
3011
0000
0100
0000
0112
0000
1000
0000
1010
0000
1000
0010
1100
0000
0110
,
0000
1013
0110
0000
0000
1120
0000
1000
0000
1100
0000
0001
1000
0101
0000
1100
,
0000
0000
1031
0000
0000
0000
0000
0000
0000
0000
0000
1111
0000
0000
0000
0000
0000
0000
0000
1111
0000
0000
0000
0000
0000
0000
0000
1111
0000
0000
0000
0000
,
0001
0110
0001
0110
0001
1110
0001
0010
0100
1000
0100
0010
0100
1001
0010
0001
,
0100
0010
0100
1000
0010
0101
0010
0001
0100
0010
1000
0100
0010
2100
0001
0010
,
0001
0100
0010
0001
0100
3011
0100
0001
1000
0010
0100
0001
0010
0101
0010
0001
,
1000
0100
0001
0100
0010
0101
1000
0101
1000
0101
1000
0101
1000
0110
0001
0010
,
0100
1000
0100
0001
0100
1001
0100
0010
1000
0001
0100
0001
1000
0101
1000
0010
,
0100
1000
0010
0100
0001
1010
0100
0010
0001
0100
0010
0100
1000
0120
1000
0100
,
1000
0001
1000
0001
0100
1031
0100
0010
0100
1000
0001
0010
0100
0011
0100
0010
,
0001
1000
0010
0100
0001
1010
0001
1010
0001
1010
0001
1010
0001
0110
1000
0101
,
1000
0101
1000
0101
1000
0210
0000
0001
0000
1000
0000
0001
0010
1001
0000
1010
,
0000
0011
0000
0010
0300
0021
0000
1000
0000
0100
0000
0001
0001
1100
0000
1001
,
0000
0101
0000
1030
0000
2010
0000
0100
0000
0001
0000
0010
0001
0110
0000
0101
,
0000
0011
0000
0100
3000
0102
0000
0010
0000
0100
0000
1000
1000
0110
0000
1010
,
0000
1100
0000
0010
0003
0201
0000
0010
0000
0001
0000
0010
1000
0011
0000
1001
,
0000
1010
0000
0001
0300
2100
0000
0010
0000
0001
0000
0100
0100
0011
0000
0101
,
0000
0110
0000
0001
3000
1002
0000
0010
0000
0100
0000
0010
1000
0110
0000
1010
,
0000
1100
0000
0010
0003
1110
0000
0000
0000
0111
0000
0000
0000
1101
0000
0000
,
0000
1011
0000
0000
0000
1101
0000
0000
0000
0111
0000
0000
0000
1011
0000
0100
,
0000
1010
0101
1010
0101
1110
0001
1000
0100
1010
0001
1000
0001
0110
1000
0100
,
0001
1010
0100
1000
0010
1100
0010
0100
1000
0110
0001
0010
0001
1010
0100
0010
,
0100
1001
0100
1000
0010
0110
1000
0100
0001
0011
0001
0010
0100
1010
0100
0010
,
0001
1001
0100
0010
0001
0011
0100
0010
0001
0101
1000
0100
0010
1010
0100
0010
,
0001
0101
1000
0100
0010
0011
0100
1000
0010
0101
0010
0100
0001
0110
1000
0001
,
0010
1001
0100
1000
0010
1100
0010
0100
1000
0110
0001
0010
0100
1010
0001
0100
,
0010
0101
0010
0001
0100
0011
0100
1000
0010
1001
0100
0010
0001
1100
0010
0100
,
1000
0101
0010
0001
0010
1001
0100
1000
0100
1100
1000
0100
0010
1010
0100
0010
,
0001
1001
1000
0100
0010
1011
0000
1100
0000
0110
0000
0011
0100
1001
0000
1010
,
0000
0101
0000
1001
0000
0110
0000
1100
0000
0110
0000
0011
0100
1010
0000
1001
,
0000
0101
0000
1001
0000
0110
0000
0011
0000
0101
0000
1100
0001
0110
0000
0011
,
0000
0101
0000
1001
0000
1010
0001
0110
1000
0101
1000
0110
0001
1010
0001
0110
,
1000
0101
1000
0110
0001
1010
0000
0101
0000
1010
0000
1001
0010
0101
0000
1001
,
0000
0011
0000
0110
0000
1100
0000
0011
0000
1100
0000
0101
0010
1001
0000
0110
,
0000
1100
0000
1010
0000
0101
0000
1001
0000
1010
0000
1100
0010
0101
0000
1001
,
0000
1010
0000
0101
0000
1001
0100
0011
0100
1001
0100
0011
0100
1001
0100
0011
,
0100
1001
0100
0011
0100
1001
0000
0100
0010
0100
0000
0001
0010
0001
0000
0100
,
1000
0010
0000
0100
0010
1000
0000
0001
0010
0100
0000
0100
0010
0001
0000
1000
,
0100
1000
0000
0010
0100
1000
0000
0001
0010
0001
0000
0100
0010
0001
0000
1000
,
0100
0001
0000
0001
0010
1000
0000
0100
0001
0010
0000
0100
0010
1000
0000
0010
,
0100
1000
0000
0001
0010
0100
0000
0001
1000
0100
0000
0010
0001
0010
0000
1000
,
0100
0001
0000
1000
0100
1000
0000
0010
0100
0010
0000
0001
0010
0001
0000
0100
,
0010
0100
0000
0100
1000
0100
0000
0100
0010
0001
0000
0001
0010
0100
0000
0100
,
0010
1000
0000
1000
0100
0010
0000
0100
0010
0001
0000
0100
0001
0100
0000
1010
,
0101
1010
0101
1010
0101
2110
0000
0001
0000
0010
0000
0100
0000
0010
0000
0001
,
0000
0100
0000
0010
0000
0100
0000
0001
0000
0010
0000
3100
0000
0010
0000
0001
,
0000
1000
0000
0010
0000
1102
0000
0010
0000
1000
0000
0100
0000
0010
0000
1000
,
0000
0010
0000
0100
0000
1000
0000
0010
0000
0100
0000
0010
0000
1103
0011
1100
,
0011
1100
0011
1100
0011
1201
0000
0001
0000
0010
0000
1000
0000
0001
0000
0010
,
0000
0001
0000
1000
0000
0010
0000
0001
0000
1000
0000
0310
0000
1000
0000
0100
,
0000
0010
0000
0001
0000
1120
0000
0001
0000
1000
0000
0100
0000
0001
0000
1000
,
0000
0100
0000
1000
0000
1031
0110
1001
0110
1001
0110
1001
0110
1001
0110
1001
,
0110
1001
0110
1001
0110
1111
0000
0101
0000
1010
0000
0110
0001
1110
0000
0101
,
0000
1010
0000
1100
0000
1101
0000
0011
0000
0110
0000
1010
0100
1011
0000
0101
,
0000
1010
0000
0011
0000
1110
0000
1100
0000
0101
0000
0011
1000
0111
0000
1001
,
0000
1010
0000
1100
0000
0111
1100
0011
1100
0011
1100
0011
1100
0011
1100
0011
,
1100
0011
1100
0011
1100
1111
0000
0101
0000
0110
0000
1010
0001
1110
0000
0101
,
0000
0011
0000
1100
0000
1011
0000
1100
0000
0110
0000
1001
0010
1101
0000
0011
,
0000
0110
0000
0101
0000
1110
0000
0110
0000
1001
0000
0101
0010
1101
0000
1100
,
0000
0110
0000
0011
0000
0111
0000
1000
0000
0010
0000
0100
0000
0001
0000
0000
,
0000
1000
0000
0000
0000
0010
0000
0000
0000
0001
0000
0000
0000
0100
0000
0000
,
0000
0010
0000
0000
0000
1000
0000
0000
0000
0001
0000
0000
0000
0100
0000
0000
;

//---------------dance-single - ----------------
#NOTES:
     dance-single:
     :
     Medium:
     1:
     0.000,0.000,0.000,0.000,0.000,0.000,0.000,0.000,0.000,0.000:
0000
0000
0000
0000
;

//---------------dance-single - ----------------
#NOTES:
     dance-single:
     :
     Easy:
     1:
     0.000,0.000,0.000,0.000,0.000,0.000,0.000,0.000,0.000,0.000:
0000
0000
0000
0000
;
